[Login] or [Signup]
Login
Username:
Password:
[Signup]
[Recover Account]


Poll


You must be logged in to view polls



Torrent Details For "Naqaab (2018) Bengali Movie - 720p - HDTV Rip [x264 - AC3(2Ch)] - 2.98 GB"

Naqaab (2018) Bengali Movie - 720p - HDTV Rip [x264 - AC3(2Ch)] - 2.98 GB

Download this torrent | Magnet Download
Health:
Seeds: 20
Leechers: 27
Completed:
Last Checked: 30-11-2018 16:00:59
External Torrent
Update Stats
Download Magnet


Poster


iMDB
Title: Naqaab
Year: 2018
Votes: 114
Rating: 6.9/10
Language: Bengali
Director: Rajiv Biswas
Writing By: Venkat Prabhu,
Produced By: Shrikant Mohta,Mahendra Soni,
Music: Baba Yadab
Cast:
Shakib Khan as Mass
Nusrat Jahan as
Sayantika Banerjee as
Rudranil Ghosh as Rahim
Amit Hasan as
Kharaj Mukherjee as
Sadek Bachchu as
Shiba Shanu as
Supriyo Dutta as


Watch-Free-HD     Download

Details
Name:Naqaab (2018) Bengali Movie - 720p - HDTV Rip [x264 - AC3(2Ch)] - 2.98 GB
Description:
    Naqaab (2018) Bengali Movie - 720p - HDTV Rip
[x264 - AC3(2Ch)] - 2.98 GB
 






General
Format                                   : Matroska
Format version                           : Version 2
File size                                : 2.98 GiB
Duration                                 : 2 h 54 min

Video
ID                                       : 1
Format                                   : AVC
Format/Info                              : Advanced Video Codec
Format profile                           : [email protected]
Format settings                          : CABAC / 4 Ref Frames
Format settings, CABAC                   : Yes
Format settings, RefFrames               : 4 frames
Codec ID                                 : V_MPEG4/ISO/AVC
Duration                                 : 2 h 54 min
Bit rate                                 : 2 000 kb/s
Width                                    : 1 280 pixels
Height                                   : 544 pixels
Display aspect ratio                     : 2.35:1
Frame rate mode                          : Constant
Frame rate                               : 25.000 FPS
Color space                              : YUV
Chroma subsampling                       : 4:2:0
Bit depth                                : 8 bits
Scan type                                : Progressive
Bits/(Pixel*Frame)                       : 0.115
Stream size                              : 2.43 GiB (82%)

Audio
ID                                       : 2
Format                                   : AC-3
Format/Info                              : Audio Coding 3
Commercial name                          : Dolby Digital
Codec ID                                 : A_AC3
Duration                                 : 2 h 54 min
Bit rate mode                            : Constant
Bit rate                                 : 448 kb/s
Channel(s)                               : 6 channels
Channel layout                           : L R C LFE Ls Rs
Sampling rate                            : 48.0 kHz
Stream size                              : 558 MiB (18%)
[/code]



Thumbnail





Category:Movies > Bengali
Lang:Bengali  Bengali
Total Size:2.98 GB
Info Hash:5a7ab527799779d3ca93be71ef7a22ff4a8418a2
Added By:CyberTron
Date Added:30-11-2018 10:49:12
Views:115
Hits:3

Download Torrent

Ratings:Not Yet Rated (Log in to rate it)

  


Tracker:
udp://tracker.trackerfix.com:80/announce


File List: 


Comments

No comments still posted

Powered by 10 Hamsters v2-svn -|- Page Generated In 0.924029 secs.
-|- RSS FEED
Theme By: Nikkbu
[1 Episoded Added] Game of Thrones S03 Complete Dual Audio [Hindi – English] 720p BRRip | Creed II 2018 HDCAM Torrent9 | Thomas Barbusca